passodelvivione
» » Don Sickler - Reflections

Don Sickler - Reflections flac mp3

Don Sickler - Reflections flac mp3
Performer:
Don Sickler
Album:
Reflections
Style:
Post-Bop,Jazz Instrument,Trumpet Jazz
Recording date:
March 27, 2000
Date of release:
March 12, 2002
Recording location:
Gelder Recording Studio, Englewood Cliffs, NJ
Duration:
01:04:21
FLAC vers. size:
1983 mb
MP3 vers. size:
1880 mb
WMA vers. size:
1262 mb
Other formats
MOD DTS FLAC MPC MP2 VQF
Rating:
4.9 ★
Votes:
742

Songs start at USD . 9. Released: 15 Mar 2002. 2002 HighNote Records.

1 Bee Tee's Minor Plea 2 Soft Shoulder 3 I Didn't 4 Gone But Not Forgotten 5 Grand Valse 6 Song For Richard 7 Swing Spring 8 Politely 9 Minor Reflections 10 Miles Ahead 11 Denial. personnel : Don Sickler - trumpet, flugelhorn Bobby Porcelli - flute, alto saxophone Ronnie Mathews - piano Peter Washington - bass Ben Riley - drums

Reflections" PERFORMER "Don Sickler Quintet" INDEX 00 06:08:07 FILE "09 - Minor Reflections. wav" WAVE INDEX 01 00:00:00 TRACK 10 AUDIO TITLE "Miles Ahead" PERFORMER "Don Sickler Quintet" INDEX 00 04:37:15 FILE "10 - Miles Ahead. wav" WAVE INDEX 01 00:00:00 TRACK 11 AUDIO TITLE "Denial" PERFORMER "Don Sickler Quintet" INDEX 00 06:21:59 FILE "11 -. Denial. wav" WAVE INDEX 01 00:00:00.

Don Sickler Quintet songs download, free online mp3 listen. The Don Sickler Quintet - Soft Shoulder. The Don Sickler Quintet - Bee Tee's Minor Plea. The Don Sickler Quintet - Denial.

Profile: American jazz trumpeter, arranger and producer, born January 6, 1944.

Information for album "Reflections": The Don Sickler Quintet. Donald Sickler : "Don Sickler". Roberto Porcelli : "Bobby Porcelli".

Don Sickler Quintet - Reflections. Don Sickler Quintet - Reflections. 1 2 3 4 5 6 7 8 9 10 11 12 13 14 15 16 17 18 19 20 21 22 23 24 25 26 27 28 29 30 31 32 33 34 35 36 37 38 39 40 41 42 43 44 45 46 47 48 49 50. Downloads.

Don Sickler: American jazz trumpeter, arranger and producer. Blue Lament, The Peacocks, Toot's Suite и другие песни. Вся дискография, Радио, Концерты, рекомендации и похожие исполнители.

The Don Sickler Quintet - Reflections, 2002. Bee Tee's Minor Plea 06:29. Gone But Not Forgotten 05:47. The Grand Valse 06:13. Song for Richard 05:34. Claudio Roditi, Don Sickler Quintet - God Rest Ye Merry Gentlemen 04:44 An Uptown Christmas. Jo Loesser Lumpy Wilkes Original Las Vegas Cast Forthcoming Follow Follow Karma & Lotus Amina & Amiri Baraka Return of the Medicine Man Eval Manigat Ric'key Pageot' & Jazzma Clifton Joseph Lu Chunling; Shanghai Folk Orchestra; Zhou Hui The Photographic Leonid Kogan, Rudolf Barshai, Mstislav Rostropovich Six Twilights El Combo Vikingo Comden And Green Byron Rooker Roger Hines Peter Retzlaff Dave DeWitt Chad Eby DJ.

Track List

Title/Composer Performer Time
1 Bee Tee's Minor Plea Booker Little Don Sickler 6:29
2 Soft Shoulder Lonnie Hillyer Don Sickler 6:58
3 I Didn't Miles Davis Don Sickler 5:32
4 Gone but Not Forgotten Tommy Turrentine Don Sickler 5:47
5 The Grand Valse Booker Little Don Sickler 6:13
6 Song for Richard Joe Gordon Don Sickler 5:34
7 Swing Spring Miles Davis Don Sickler 5:37
8 Politely Bill Hardman Don Sickler 6:10
9 Minor Reflections Lonnie Hillyer Don Sickler 4:41
10 Miles Ahead Miles Davis Don Sickler 6:25
11 Denial Miles Davis Don Sickler 4:55

Credits

Miles Davis - Composer
Joe Fields - Executive Producer
Jack Frisch - Art Direction, Design
Joe Gordon - Composer
Bill Hardman - Composer
Lonnie Hillyer - Composer
R. Andrew Lepley - Photography
Booker Little - Composer
Ronnie Mathews - Guest Artist, Piano
Bobby Porcelli - Flute, Flute (Alto), Sax (Alto)
Ben Riley - Drums
Don Sickler - Flugelhorn, Primary Artist, Producer, Trumpet
Maureen Sickler - Assistant
Zan Stewart - Liner Notes
Tommy Turrentine - Composer
Rudy Van Gelder - Engineer, Mastering, Mixing
Peter Washington - Bass