passodelvivione
» » Yusuf Al-Manyalawi - Cheikh Yusuf Al-Manyalawi

Yusuf Al-Manyalawi - Cheikh Yusuf Al-Manyalawi flac mp3

Yusuf Al-Manyalawi - Cheikh Yusuf Al-Manyalawi flac mp3
Performer:
Yusuf Al-Manyalawi
Album:
Cheikh Yusuf Al-Manyalawi
Date of release:
July 11, 1993
FLAC vers. size:
1870 mb
MP3 vers. size:
1100 mb
WMA vers. size:
1720 mb
Other formats
APE VOX MMF DTS MPC RA
Rating:
4.8 ★
Votes:
455

Cheikh yusuf al Manyalawi. Salama Higazi - Salâmun ola husnin 14:30. Cheikh yusuf al Manyalawi - Ya ahl al-gharam 05:26. Sayed Darwich - Ana hawet wentahet (Extrait) 12:56. Salih abd al-hayy - Khalif khalif 05:23. Baligh hamidi - Sawah 02:53.

Cheikh Yusuf Al-Manyalawi. Cheikh Yusuf Al-Manyalawi.

Yusuf al-Manyalawi (Yûsuf al-Manyalâwî) - Shaykh Yûsuf al-Manyalâwî (1847-1911) - 1993, FLAC (tracks+. Download via torrent Download via magnet. 03. Ya ahl el-gharâm. 09. Qifî yâ umayma al-qalb. 07. Uhibbuki yâ Salmä, Hâmilu al-hawä.

B-eftekârak êh yefîdak. wav" WAVE TRACK 02 AUDIO TITLE "B-eftekârak êh yefîdak" PERFORMER "Yûsuf al-Manyalâwî" ISRC FRZ549200651 INDEX 01 00:00:00 TRACK 03 AUDIO TITLE "Ya ahl el-gharâm" PERFORMER "Yûsuf al-Manyalâwî" ISRC FRZ549200652 INDEX 00 08:39:70 FILE "03. wav" WAVE INDEX 01 00:00:00 TRACK 08 AUDIO TITLE "Man lahu 'ahdun" PERFORMER "Yûsuf al-Manyalâwî" ISRC FRZ549200657 INDEX 00 09:04:63 FILE "08. Man lahu 'ahdun. wav" WAVE INDEX 01 00:00:00 TRACK 09 AUDIO TITLE "Qifî yâ umayma al-qalb" PERFORMER "Yûsuf al-Manyalâwî" ISRC FRZ549200658 INDEX 00 04:43:37 FILE "09.

Listen to music from Shaykh Yusuf al Manyalawi like Fa-ya muhgati, B-eftekarak eh yefidak & more. Find the latest tracks, albums, and images from Shaykh Yusuf al Manyalawi.

Gigs seen live by. Nobody has seen Yūsuf al-Manyalāwī live yet! Last updated: 9 Jun 2019, 03:56 Etc/UTC.

Credits

Yusuf Al-Manyalawi - Primary Artist