passodelvivione
» » Floorfilla - Re-Fill

Floorfilla - Re-Fill flac mp3

Floorfilla - Re-Fill flac mp3
Performer:
Floorfilla
Album:
Re-Fill
Date of release:
December 13, 2004
Duration:
01:15:27
FLAC vers. size:
1173 mb
MP3 vers. size:
1717 mb
WMA vers. size:
1644 mb
Other formats
TTA MP4 MIDI ADX MOD MPC
Rating:
4.7 ★
Votes:
564

Re-Fill ‎(CD, Album, Unofficial). ZYX Music (2). ZYX 20707-2.

Artist: Floorfilla Title Of Album: Re-Fill Release Date: 2004 Location: Italy Label: ZYX Music (ZYX 20707-2) Genre: Italo-Dance, Hard House Quality: APE lossless (image+. Used output format : Monkey's Audio Lossless Encoder v. 9 DLL Sample format : High Lossless Compression.

Скачай Floorfilla - Komputermelody (SejixMusic feat. CAFDALY Remix) mp3 ♫ 04:52 320 kbps 11,898,889. Technoromance (Pulsedriver club mix). Sex is Danger (Album Version).

Значек "play" перед названием песни дает возможность найти mp3 и прослушать любую песню с альбома Re-Fill Floorfilla.

3 8-063-375-47-67 в skype наш ник imperia .

Floorfilla - Best Singles Collection (2003). Songs in album Floorfilla - Best Singles Collection (2003). 1. Anthem 3 (Flickman unreleased mix).

All songs and all albums Floorfilla You can listen for information on the site. Download the album or mp3, watch videos Floorfilla. All video clips of all the songs are here. Also known as Floorfila, FlorFilla. Members of Floorfilla: Bale Mondonga, Elvio Moratto, Gabriele Cerlini.

Floorfilla - Re-Fill. Жанр: Italodance, Hands Up Год выпуска диска: 2004 Производитель диска: Германия Аудио кодек: APE Тип рипа: image+. cue Битрейт аудио: lossless Продолжительность: 1:15:32. 06 AUDIO TITLE "Sister Golden Hair" PERFORMER "Floorfilla" INDEX 01 18:09:01 TRACK 07 AUDIO TITLE "Le Truc Bidon All The Shit Things" PERFORMER "Floorfilla" INDEX 01 22:05:07 TRACK 08 AUDIO TITLE "Floorfilla Loves You" PERFORMER "Floorfilla" INDEX 01 26:31:33 TRACK 09 AUDIO TITLE "Time 2 Move" PERFORMER "Floorfilla" INDEX 01 27:15:43 TRACK 10 AUDIO TITLE. 6 Is Danger" PERFORMER "Floorfilla" INDEX 01 30:56:54 TRACK 11 AUDIO TITLE "Mayday!"

Track List - Disc 1

Title/Composer Performer Time
1 Welcome Party People! Floorfilla 2:00
2 Badboy Floorfilla 4:32
3 Anthem #6 (Cassez la Boite) Roberto Zanetti Floorfilla 3:21
4 Kosmiklove Floorfilla 3:25
5 Game Over Floorfilla 4:50
6 Sister Golden Hair Floorfilla 3:56
7 Le Truc Bidon All the Shit Things Floorfilla 4:26
8 Floorfilla Loves You Floorfilla 0:44
9 Time 2 Move Floorfilla 3:41
10 6 Is Danger Floorfilla 4:07
11 Mayday! Floorfilla 3:28
12 Le Delire Floorfilla 3:54
13 Was Floorfilla 0:32
14 My Melody Floorfilla 5:01
15 Osama Rave Floorfilla 0:56
16 Floor-Fee-La M.J. Harris Floorfilla 6:01
17 Sex Is Danger Floorfilla 6:03
18 Kosmiklove Floorfilla 5:37
19 Gigamix DJ Cerla Gigaclub: Bass/Game Over/Le Delire/6 Is Danger/Sahara Roberto Zanetti Floorfilla 8:53

Track List - Disc 2

Title/Composer Performer Time
1 Le Delire Floorfilla
2 Megamix Floorfilla
3 Technoromance Floorfilla
4 Anthem #2 Floorfilla
5 Anthem #3 Floorfilla
6 Anthem #4 Floorfilla
7 Anthem #5 (Enter the Arena) Floorfilla
8 Anthem #6 (Cassez la Boite) Roberto Zanetti Floorfilla
9 In Action Floorfilla
10 Photos Floorfilla

Credits

DJ Cerla - Producer, Remixing
Floorfilla - Primary Artist
M.J. Harris - Composer
Paul Hutch - Producer, Remixing
Slobodan Petrovic - Producer, Remixing
Roberto Zanetti - Composer